Results 1 to 1 of 1

Thread: Mama 2013 DVDRiP AC3 XviD-AXED

  1. #1
    Senior Member Delivery's Avatar
    Join Date
    Apr 2013
    Location
    Bad lands of Pennsylvania.
    Posts
    1,118

    Mama 2013 DVDRiP AC3 XviD-AXED


    Plot: Annabel and Lucas are faced with the challenge of raising his young nieces that were left alone in the forest for 5 years…. but how alone were they?

    Code:
    (  ___  )|\     /|(  ____ \(  __  \
    | (   ) |( \   / )| (    \/| (  \  )
    | (___) | \ (_) / | (__    | |   ) |
    |  ___  |  ) _ (  |  __)   | |   | |
    | (   ) | / ( ) \ | (      | |   ) |
    | )   ( |( /   \ )| (____/\| (__/  )
    |/     \||/     \|(_______/(______/
      _    _    _    _    _    _    _    _  
     / \  / \  / \  / \  / \  / \  / \  / \
    ( p )( r )( e )( s )( e )( n )( t )( s )
     \_/  \_/  \_/  \_/  \_/  \_/  \_/  \_/
     
    Mama.2013.DVDRiP.AC3-5.1.XviD-AXED
     
    POSTER:
    
     
    IMDB:
    http://www.imdb.com/title/tt2023587/
     
    PLOT INFO:
    Annabel and Lucas are faced with the challenge of raising his young nieces that were left alone in the forest for 5 years.... but how alone were they?
     
    Media Info:
     
    General
    Complete name                    : Mama.2013.DVDRiP.AC3-5.1.XviD-AXED.avi
    Format                           : AVI
    Format/Info                      : Audio Video Interleave
    File size                        : 1.38 GiB
    Duration                         : 1h 40mn
    Overall bit rate                 : 1 968 Kbps
     
    Video
    ID                               : 0
    Format                           : MPEG-4 Visual
    Format profile                   : Advanced Simple@L5
    Format settings, BVOP            : 1
    Format settings, QPel            : No
    Format settings, GMC             : No warppoints
    Format settings, Matrix          : Default (H.263)
    Codec ID                         : XVID
    Codec ID/Hint                    : XviD
    Duration                         : 1h 40mn
    Bit rate                         : 1 512 Kbps
    Width                            : 720 pixels
    Height                           : 384 pixels
    Display aspect ratio             : 1.875
    Frame rate                       : 23.976 fps
    Color space                      : YUV
    Chroma subsampling               : 4:2:0
    Bit depth                        : 8 bits
    Scan type                        : Progressive
    Compression mode                 : Lossy
    Bits/(Pixel*Frame)               : 0.228
    Stream size                      : 1.06 GiB (77%)
    Writing library                  : XviD 1.2.1 (UTC 2008-12-04)
     
    Audio
    ID                               : 1
    Format                           : AC-3
    Format/Info                      : Audio Coding 3
    Mode extension                   : CM (complete main)
    Codec ID                         : 2000
    Duration                         : 1h 40mn
    Bit rate mode                    : Constant
    Bit rate                         : 448 Kbps
    Channel(s)                       : 6 channels
    Channel positions                : Front: L C R, Side: L R, LFE
    Sampling rate                    : 48.0 KHz
    Bit depth                        : 16 bits
    Compression mode                 : Lossy
    Stream size                      : 321 MiB (23%)
    Alignment                        : Aligned on interleaves
    Interleave, duration             : 64 ms (1.53 video frames)
    Interleave, preload duration     : 192 ms
    Title                            : VTS_01_1 T80 3_2ch 448Kbps DELAY 0ms
     
     
     
    SOURCE:
    Retail RA/R1 BD/DVD Combo
     
    NOTES:
    720p in the works. Thought we would give you a little something while we work.
     
    AXED! We do this better.
     
    SCREENS:
    
    
    
    
    
     
    [video=http://www.youtube.com/watch?v=7Am7i7uM9r0]
    Download Mama 2013 DVDRiP AC3 XviD AXED avi

  2. # ADS
    Circuit advertisement
    Join Date
    Always
    Location
    Advertising world
    Posts
    Many
                        
     

Bookmarks

Posting Permissions

  • You may not post new threads
  • You may not post replies
  • You may not post attachments
  • You may not edit your posts
  •  
◮ Top

SEO by vBSEO ©2011, Crawlability, Inc.