Results 1 to 2 of 2
Like Tree1Likes
  • 1 Post By Quality 4 U

Thread: Captain Phillips 2013 CAM XViD - JUSTiCE

  1. #1
    Approved Uploader
    Join Date
    Sep 2013
    Posts
    556

    Captain Phillips 2013 CAM XViD - JUSTiCE

    Captain Phillips 2013 CAM XViD - JUSTiCE

    Code:
    http://www.imdb.com/title/tt1535109/
    Code:
    Captain Phillips 2013 CAM XViD - JUSTiCE
    
    
    
    SOURCE : VIDEO - Patriots VOBS THXS   AUDIO - Patriots VOBS THXS
    
    
    Video and audio both cleaned and given justice.
    Check sample and see.....
    
    
    Was kindly given the vobs and gotta say their pretty nice,but like all cams it has it issues.
    There was borders,some cam movement,fair bit of glare,washed colours etc...
    Audio was decent cam audio but needed some TLC.
    
    
    WORKDONE -
    
    Made a script for the vobs and then dropped that into vdub ...here i cropped the borders,then resized to a decent AR.
    Some scenes had pixel issues so had to use a HQ smoother to blend them in.Also tweaked contrast,brightness,rgb levels...before
    adding some sharpness back.
    Video does had HC english subs when needed,so that was a bonus :)
    
    Audio stripped and remastered in AA,before saving as mp3 and remuxing.
    
    Overall for a cam V7 A6.5 M8
    
    
    Video
    ID                                       : 0
    Format                                   : MPEG-4 Visual
    Format profile                           : Advanced Simple@L5
    Format settings, BVOP                    : 2
    Format settings, QPel                    : No
    Format settings, GMC                     : No warppoints
    Format settings, Matrix                  : Default (MPEG)
    Muxing mode                              : Packed bitstream
    Codec ID                                 : XVID
    Codec ID/Hint                            : XviD
    Duration                                 : 2h 7mn
    Bit rate                                 : 2 107 Kbps
    Width                                    : 720 pixels
    Height                                   : 352 pixels
    Display aspect ratio                     : 2.045
    Frame rate                               : 29.970 fps
    Color space                              : YUV
    Chroma subsampling                       : 4:2:0
    Bit depth                                : 8 bits
    Scan type                                : Progressive
    Compression mode                         : Lossy
    Bits/(Pixel*Frame)                       : 0.277
    Stream size                              : 1.87 GiB (94%)
    Writing library                          : XviD 64
    
    Audio
    ID                                       : 1
    Format                                   : MPEG Audio
    Format version                           : Version 1
    Format profile                           : Layer 3
    Mode                                     : Joint stereo
    Mode extension                           : MS Stereo
    Codec ID                                 : 55
    Codec ID/Hint                            : MP3
    Duration                                 : 2h 7mn
    Bit rate mode                            : Constant
    Bit rate                                 : 128 Kbps
    Channel(s)                               : 2 channels
    Sampling rate                            : 48.0 KHz
    Compression mode                         : Lossy
    Stream size                              : 116 MiB (6%)
    Alignment                                : Split accross interleaves
    Interleave, duration                     : 33 ms (1.00 video frame)
    Interleave, preload duration             : 500 ms







    Download:



    UL:
    Code:
    http://uploaded.net/file/kob6vemz/Captain%20Phillips%202013%20CAM%20XViD%20-%20JUSTiCE.avi
    http://uploaded.net/file/7iprw12z/sample.avi

    EB:
    Code:
    http://extabit.com/file/279t6yyr1kjna/sample.avi
    http://extabit.com/file/279t6yyr1kddy/Captain Phillips 2013 CAM XViD - JUSTiCE.avi

  2. # ADS
    Circuit advertisement
    Join Date
    Always
    Posts
    Many
                        
     

  3. #2
    Member
    Join Date
    Apr 2013
    Posts
    73
    props

Similar Threads

  1. Captain Phillips 2013 CAM XViD-UNiQUE
    By pisher in forum Cam
    Replies: 0
    Last Post: 10-26-2013, 11:29 PM
  2. Baggage Claim 2013 CAM XViD-JUSTiCE
    By pisher in forum Cam
    Replies: 0
    Last Post: 10-13-2013, 10:14 PM
  3. Replies: 0
    Last Post: 09-24-2013, 10:46 PM
  4. Elysium 2013 CAM READNFO XViD-JUSTiCE
    By pisher in forum Cam
    Replies: 0
    Last Post: 08-13-2013, 11:23 PM
  5. Replies: 0
    Last Post: 06-18-2013, 12:33 AM

Bookmarks

Posting Permissions

  • You may not post new threads
  • You may not post replies
  • You may not post attachments
  • You may not edit your posts
  •  
◮ Top

SEO by vBSEO ©2011, Crawlability, Inc.