Results 1 to 1 of 1

Thread: Rush 2013 CAM XviD READNFO-INFERNO

  1. #1
    Approved Uploader
    Join Date
    Sep 2013
    Posts
    291

    Rush 2013 CAM XviD READNFO-INFERNO

    Rush 2013 CAM XviD READNFO-INFERNO

    Code:
    Source:[German/English] Rush 2013 NEW CAM/TS DUAL AUDIO READNFO XViD MP3 MURDER...THANKS
    
    Audio:UNiQUE's/KiNGofJeFFs....Thanks
    
    http://www.imdb.com/title/tt1979320/
    
    Format                           : AVI
    Format/Info                      : Audio Video Interleave
    File size                        : 1.29 GiB
    Duration                         : 1h 52mn
    Overall bit rate                 : 1 636 Kbps
    Writing library                  : VirtualDub build 35390/release
    
    Video
    ID                               : 0
    Format                           : MPEG-4 Visual
    Format profile                   : Advanced Simple@L5
    Format settings, BVOP            : Yes
    Format settings, QPel            : No
    Format settings, GMC             : No warppoints
    Format settings, Matrix          : Default (H.263)
    Muxing mode                      : Packed bitstream
    Codec ID                         : XVID
    Codec ID/Hint                    : XviD
    Duration                         : 1h 52mn
    Bit rate                         : 1 499 Kbps
    Width                            : 720 pixels
    Height                           : 384 pixels
    Display aspect ratio             : 1.875
    Frame rate                       : 25.000 fps
    Color space                      : YUV
    Chroma subsampling               : 4:2:0
    Bit depth                        : 8 bits
    Scan type                        : Progressive
    Bits/(Pixel*Frame)               : 0.217
    Stream size                      : 1.18 GiB (92%)
    Writing library                  : XviD 1.2.1 (UTC 2008-12-04)
    
    Audio
    ID                               : 1
    Format                           : MPEG Audio
    Format version                   : Version 1
    Format profile                   : Layer 3
    Mode                             : Joint stereo
    Mode extension                   : MS Stereo
    Codec ID                         : 55
    Codec ID/Hint                    : MP3
    Duration                         : 1h 52mn
    Bit rate mode                    : Constant
    Bit rate                         : 128 Kbps
    Channel(s)                       : 2 channels
    Sampling rate                    : 48.0 KHz
    Stream size                      : 103 MiB (8%)
    Alignment                        : Split accross interleaves
    Interleave, duration             : 40 ms (1.00 video frame)
    Interleave, preload duration     : 500 ms
    
    Workdone:
    Well had issues finding source's on this, as we heard there a italian and german source. So im guess this is the German source which we could be wrong, since Murder group doesnt always tag there stuff correctly. First we notice video goes out of focus during dark spot and comes back in, but didnt seem to bother me much. What would of been nice is to have some subtitles for the non-english part which we werent able to get, sorry. We did the usual filters to clean up video which we wont bother you with.
    
    Audio:
    Not sure if there was another source of audio for this but we went with UNiQUE's and clean it up, by taking the noise out and adjusting the mid's and a few enhancements. It seem that the audio was shrink to fit video, so audio wasn't perfectly in sync, so we did a few cut's and paste here and there to get sync right, not sure if perfect but better then it was.
    
    TEAM INFERNO






    Sample:

    Code:
    http://extabit.com/file/2dudj0p6rwwu7/Rush 2013 CAM XviD READNFO-INFERNO_SAMPLE.avi
    http://uploaded.net/file/qpccsdge/Rush%202013%20CAM%20XviD%20READNFO-INFERNO_SAMPLE.avi
    Download:
    Code:
    http://extabit.com/file/2dudj0p6rwwxr/Rush 2013 CAM XviD READNFO-INFERNO.avi
    or
    http://uploaded.net/file/tmqog058/Rush%202013%20CAM%20XviD%20READNFO-INFERNO.avi

  2. # ADS
    Circuit advertisement
    Join Date
    Always
    Posts
    Many
                        
     

Similar Threads

  1. Riddick (2013) READNFO CAM XviD-UNiQUE
    By BollyCorner in forum Cam
    Replies: 0
    Last Post: 09-09-2013, 03:58 PM
  2. Replies: 0
    Last Post: 08-30-2013, 09:31 PM
  3. Replies: 0
    Last Post: 08-18-2013, 10:20 PM
  4. Elysium 2013 CAM READNFO XViD-JUSTiCE
    By pisher in forum Cam
    Replies: 0
    Last Post: 08-13-2013, 10:23 PM

Bookmarks

Posting Permissions

  • You may not post new threads
  • You may not post replies
  • You may not post attachments
  • You may not edit your posts
  •  
◮ Top

SEO by vBSEO ©2011, Crawlability, Inc.