Results 1 to 1 of 1

Thread: Prisoners (2013) TS XViD AC3 MURDER

  1. #1
    Approved Uploader
    Join Date
    Sep 2013
    Posts
    291

    Prisoners (2013) TS XViD AC3 MURDER

    Prisoners 2013 TS XViD AC3 MURDER


    Code:
    Prisoners 2013 TS XViD AC3 MURDER.mkv
    
    Format                                   : Matroska
    Format version                           : Version 2
    File size                                : 1.08 GiB
    Duration                                 : 2h 25mn
    Overall bit rate                         : 1 064 Kbps
    Encoded date                             : UTC 2013-10-11 00:00:17
    Writing application                      : mkvmerge v6.2.0 ('Promised Land') built on Apr 28 2013 12:22:01
    Writing library                          : libebml v1.3.0 + libmatroska v1.4.0
    
    Video
    ID                                       : 1
    Format                                   : MPEG-4 Visual
    Format profile                           : Advanced Simple@L5
    Format settings, BVOP                    : Yes
    Format settings, QPel                    : No
    Format settings, GMC                     : No warppoints
    Format settings, Matrix                  : Default (H.263)
    Codec ID                                 : V_MS/VFW/FOURCC / XVID
    Codec ID/Hint                            : XviD
    Duration                                 : 2h 25mn
    Bit rate                                 : 915 Kbps
    Width                                    : 720 pixels
    Height                                   : 384 pixels
    Display aspect ratio                     : 1.85:1
    Frame rate mode                          : Constant
    Frame rate                               : 29.970 fps
    Color space                              : YUV
    Chroma subsampling                       : 4:2:0
    Bit depth                                : 8 bits
    Scan type                                : Progressive
    Compression mode                         : Lossy
    Bits/(Pixel*Frame)                       : 0.110
    Stream size                              : 954 MiB (86%)
    Writing library                          : XviD 64
    Default                                  : Yes
    Forced                                   : No
    
    Audio
    ID                                       : 2
    Format                                   : AC-3
    Format/Info                              : Audio Coding 3
    Mode extension                           : CM (complete main)
    Format settings, Endianness              : Big
    Codec ID                                 : A_AC3
    Duration                                 : 2h 25mn
    Bit rate mode                            : Constant
    Bit rate                                 : 128 Kbps
    Channel count                            : 2 channels
    Channel positions                        : Front: L R
    Sampling rate                            : 44.1 KHz
    Bit depth                                : 16 bits
    Compression mode                         : Lossy
    Stream size                              : 133 MiB (12%)
    Default                                  : Yes
    Forced                                   : No







    Download:
    Code:
    http://extabit.com/file/2dudiparn282e/Prisoners 2013 TS XViD AC3 MURDER.mkv
    or
    http://uploaded.net/file/x2s8gqts/Prisoners%202013%20TS%20XViD%20AC3%20MURDER.mkv

  2. # ADS
    Circuit advertisement
    Join Date
    Always
    Posts
    Many
                        
     

Similar Threads

  1. Prisoners 2013 TS XViD-UNiQUE
    By pisher in forum Cam
    Replies: 0
    Last Post: 10-10-2013, 08:55 PM
  2. Prisoners 2013 CAM XviD MP3-MURDER
    By pisher in forum Cam
    Replies: 0
    Last Post: 09-29-2013, 10:07 PM
  3. Replies: 0
    Last Post: 08-15-2013, 10:07 PM

Bookmarks

Posting Permissions

  • You may not post new threads
  • You may not post replies
  • You may not post attachments
  • You may not edit your posts
  •  
◮ Top

SEO by vBSEO ©2011, Crawlability, Inc.