Results 1 to 1 of 1

Thread: The Mortal Instruments: City of Bones 2013 CAM READNFO XViD

  1. #1
    Approved Uploader
    Join Date
    Jul 2013
    Posts
    587

    The Mortal Instruments: City of Bones 2013 CAM READNFO XViD

    The Mortal Instruments: City of Bones 2013 CAM READNFO XViD - VAiN



    Code:
    VAiN . P R E S E N T S . . .
    
    The Mortal Instruments: City of Bones 2013 CAM READNFO XViD - VAiN
    
    iMDB........: http://www.imdb.com/title/tt1538403/
    PLOT........: When her mother disappears, Clary Fray learns that she descends from a
    line of warriors who protect our world from demons. She joins forces with others
    like her and heads into a dangerous alternate New York called Downworld.
    
    
    T E C H N i C A L . i N F O . . .      
    General
    Complete name                            : The Mortal Instruments City of Bones 2013 CAM READNFO XViD - VAiN\The Mortal Instruments City of Bones 2013 CAM READNFO XViD - VAiN.avi
    Format                                   : AVI
    Format/Info                              : Audio Video Interleave
    File size                                : 1.38 GiB
    Duration                                 : 2h 1mn
    Overall bit rate                         : 1 629 Kbps
    Writing application                      : VirtualDubMod 1.5.10.2 (build 2540/release)
    Writing library                          : VirtualDubMod build 2540/release
    
    Video
    ID                                       : 0
    Format                                   : MPEG-4 Visual
    Format profile                           : Advanced Simple@L5
    Format settings, BVOP                    : 2
    Format settings, QPel                    : No
    Format settings, GMC                     : No warppoints
    Format settings, Matrix                  : Default (MPEG)
    Muxing mode                              : Packed bitstream
    Codec ID                                 : XVID
    Codec ID/Hint                            : XviD
    Duration                                 : 2h 1mn
    Bit rate                                 : 1 489 Kbps
    Width                                    : 720 pixels
    Height                                   : 304 pixels
    Display aspect ratio                     : 2.35:1
    Original display aspect ratio            : 2.35:1
    Frame rate                               : 29.017 fps
    Original frame rate                      : 29.023 fps
    Color space                              : YUV
    Chroma subsampling                       : 4:2:0
    Bit depth                                : 8 bits
    Scan type                                : Progressive
    Compression mode                         : Lossy
    Bits/(Pixel*Frame)                       : 0.234
    Stream size                              : 1.27 GiB (91%)
    Writing library                          : XviD 64
    
    Audio
    ID                                       : 1
    Format                                   : MPEG Audio
    Format version                           : Version 1
    Format profile                           : Layer 3
    Codec ID                                 : 55
    Codec ID/Hint                            : MP3
    Duration                                 : 2h 1mn
    Bit rate mode                            : Constant
    Bit rate                                 : 128 Kbps
    Channel(s)                               : 2 channels
    Sampling rate                            : 44.1 KHz
    Compression mode                         : Lossy
    Stream size                              : 111 MiB (8%)
    Alignment                                : Split accross interleaves
    Interleave, duration                     : 34 ms (1.00 video frame)
    Interleave, preload duration             : 500 ms
    
    
    
    
    
    E N C O D E R S . N O T E S . . .      
    SOURCE......: 720p V2 (thanks :D )
    SAMPLE......: Yes
    
    
    R E A D . N F O . . .
    Has very bad focus issues these happen often & for different lengths of time.
    Source had a very bad flicker, ive removed most of it but some still remains,
    it is more noticable in some parts than others.
    Also it is fairly dark, i couldnt make it much brighter without causing pixelation,
    turning blacks grey or making the glares even worse.
    You have been warned.
    check the sample first,
    Enjoy...










    Code:
    http://rapidgator.net/file/a7e162f68e1a6cbf11d998eaaf217721/The.Mortal.Instruments.City.of.Bones.2013.CAM.READNFO.XViD-VAiN.avi.part2.rar.html
    http://rapidgator.net/file/5cf2569caeafe1e184016d9de6aa3975/The.Mortal.Instruments.City.of.Bones.2013.CAM.READNFO.XViD-VAiN.avi.part1.rar.html
    Code:
    http://keep2share.cc/file/5220435cc8920/The.Mortal.Instruments.City.of.Bones.2013.CAM.READNFO.XViD-VAiN.avi.part1.rar
    http://keep2share.cc/file/5220bb42f38c7/The.Mortal.Instruments.City.of.Bones.2013.CAM.READNFO.XViD-VAiN.avi.part2.rar

  2. # ADS
    Circuit advertisement
    Join Date
    Always
    Posts
    Many
                        
     

Similar Threads

  1. Replies: 0
    Last Post: 08-30-2013, 09:31 PM
  2. Replies: 0
    Last Post: 08-19-2013, 12:06 AM

Bookmarks

Posting Permissions

  • You may not post new threads
  • You may not post replies
  • You may not post attachments
  • You may not edit your posts
  •  
◮ Top

SEO by vBSEO ©2011, Crawlability, Inc.