Results 1 to 1 of 1

Thread: Kick Ass 2 (2013) 720p WEBRip XviD-UNiQUE

  1. #1
    Approved Uploader
    Join Date
    Jul 2013
    Posts
    418

    Kick Ass 2 (2013) 720p WEBRip XviD-UNiQUE



    Release Notes
    Code:
    Format                                   : AVI
    Format/Info                              : Audio Video Interleave
    Format profile                           : OpenDML
    File size                                : 2.38 GiB
    Duration                                 : 1h 38mn
    Overall bit rate                         : 3 455 Kbps
    Writing application                      : VirtualDubMod 1.5.10.2 (build 2540/release)
    Writing library                          : VirtualDubMod build 2540/release
    
    Video
    ID                                       : 0
    Format                                   : MPEG-4 Visual
    Format profile                           : Advanced Simple@L5
    Format settings, BVOP                    : 2
    Format settings, QPel                    : No
    Format settings, GMC                     : No warppoints
    Format settings, Matrix                  : Default (H.263)
    Muxing mode                              : Packed bitstream
    Codec ID                                 : XVID
    Codec ID/Hint                            : XviD
    Duration                                 : 1h 38mn
    Bit rate                                 : 3 315 Kbps
    Width                                    : 1 280 pixels
    Height                                   : 520 pixels
    Display aspect ratio                     : 2.462
    Frame rate                               : 25.000 fps
    Color space                              : YUV
    Chroma subsampling                       : 4:2:0
    Bit depth                                : 8 bits
    Scan type                                : Progressive
    Compression mode                         : Lossy
    Bits/(Pixel*Frame)                       : 0.199
    Stream size                              : 2.29 GiB (96%)
    Writing library                          : XviD 64
    
    Audio
    ID                                       : 1
    Format                                   : AC-3
    Format/Info                              : Audio Coding 3
    Mode extension                           : CM (complete main)
    Format settings, Endianness              : Big
    Codec ID                                 : 2000
    Duration                                 : 1h 38mn
    Bit rate mode                            : Constant
    Bit rate                                 : 128 Kbps
    Channel(s)                               : 2 channels
    Channel positions                        : Front: L R
    Sampling rate                            : 44.1 KHz
    Bit depth                                : 16 bits
    Compression mode                         : Lossy
    Stream size                              : 90.4 MiB (4%)
    Alignment                                : Split accross interleaves
    Interleave, duration                     : 40 ms (1.00 video frame)
    Interleave, preload duration             : 500 ms
    
    
    http://www.imdb.com/title/tt1650554/
    
    
    Storyline
    After Kick-Ass' insane bravery inspires a new wave of self-made masked crusaders, led by the badass Colonel Stars and Stripes, our hero joins them on patrol. When these amateur superheroes are hunted down by Red Mist -- reborn as The Mother F%&*^r -- only the blade-wielding Hit Girl can prevent their annihilation. When we last saw junior assassin Hit Girl and young vigilante Kick-Ass, they were trying to live as normal teenagers Mindy and Dave. With graduation looming and uncertain what to do, Dave decides to start the world's first superhero team with Mindy. Unfortunately, when Mindy is busted for sneaking out as Hit Girl, she's forced to retire-leaving her to navigate the terrifying world of high-school mean girls on her own. With no one left to turn to, Dave joins forces with Justice Forever, run by a born-again ex-mobster named Colonel Stars and Stripes. Just as they start to make a real difference on the streets, the world's first super villain, The Mother F%&*^r, assembles his
    
    
    Source Used      SmY- Thanks
    Screens






    Sample
    Code:
    http://www.sendspace.com/file/7ly1n5
    DownLoad

    Single Links
    Code:
    http://extabit.com/file/279sc273roq59/Kick.avi
    
    http://uploaded.net/file/8cnlof1l/Kick.avi
    
    http://rapidgator.net/file/472954dbafa24667b4b32b3635ff55a7/Kick.avi.html
    NetLoad
    Code:
    http://netload.in/dateiqAKL9nTFjY/Kick.part1.rar.htm
    http://netload.in/dateiiafoj8muAy/Kick.part2.rar.htm
    ExtaBit
    Code:
    http://extabit.com/file/279sc273roq5p/Kick.part1.rar
    http://extabit.com/file/279sc273ron0t/Kick.part2.rar
    Uploaded.to
    Code:
    http://uploaded.net/file/6fr79yja/Kick.part1.rar
    http://uploaded.net/file/80wcfnbw/Kick.part2.rar
    RapidGator
    Code:
    http://rapidgator.net/file/1d9c08002ee5fff8eae532095e00b7e7/Kick.part1.rar.html
    http://rapidgator.net/file/d8083704fbe304ac0d271ab54a5fb72b/Kick.part2.rar.html

  2. # ADS
    Circuit advertisement
    Join Date
    Always
    Posts
    Many
                        
     

Similar Threads

  1. Kick Ass 2 (2013) 720p READNFO WEBRiP XViD-UNiQUE
    By QualityUploader in forum Cam
    Replies: 0
    Last Post: 08-30-2013, 05:38 PM
  2. Kick Ass 2 (2013) READNFO WEBRip-UNiQUE
    By BollyCorner in forum Cam
    Replies: 0
    Last Post: 08-30-2013, 11:24 AM
  3. Kick Ass 2 (2013) READNFO WEBRiP-UNiQUE
    By QualityUploader in forum Cam
    Replies: 0
    Last Post: 08-30-2013, 10:58 AM
  4. Kick Ass 2 (2013) CAM XViD - UNiQUE
    By phamthanh16091990 in forum Cam
    Replies: 0
    Last Post: 08-20-2013, 05:11 AM
  5. Kick Ass 2 2013 CAMV2 XViD UNiQUE
    By pisher in forum Cam
    Replies: 1
    Last Post: 08-20-2013, 01:35 AM

Bookmarks

Posting Permissions

  • You may not post new threads
  • You may not post replies
  • You may not post attachments
  • You may not edit your posts
  •  
◮ Top

SEO by vBSEO ©2011, Crawlability, Inc.