Results 1 to 1 of 1

Thread: The Frozen Ground (2013) HDRip XviD-UNiQUE

  1. #1
    Senior Member
    Join Date
    Jul 2013
    Posts
    184

    The Frozen Ground (2013) HDRip XviD-UNiQUE



    Release Notes
    Code:
    Format                                   : AVI
    Format/Info                              : Audio Video Interleave
    File size                                : 1.46 GiB
    Duration                                 : 1h 45mn
    Overall bit rate                         : 1 984 Kbps
    Writing application                      : VirtualDubMod 1.5.10.2 (build 2540/release)
    Writing library                          : VirtualDubMod build 2540/release
    
    Video
    ID                                       : 0
    Format                                   : MPEG-4 Visual
    Format profile                           : Advanced Simple@L5
    Format settings, BVOP                    : 2
    Format settings, QPel                    : No
    Format settings, GMC                     : No warppoints
    Format settings, Matrix                  : Default (H.263)
    Muxing mode                              : Packed bitstream
    Codec ID                                 : XVID
    Codec ID/Hint                            : XviD
    Duration                                 : 1h 45mn
    Bit rate                                 : 1 591 Kbps
    Width                                    : 720 pixels
    Height                                   : 304 pixels
    Display aspect ratio                     : 2.35:1
    Frame rate                               : 23.976 fps
    Color space                              : YUV
    Chroma subsampling                       : 4:2:0
    Bit depth                                : 8 bits
    Scan type                                : Progressive
    Compression mode                         : Lossy
    Bits/(Pixel*Frame)                       : 0.303
    Stream size                              : 1.17 GiB (80%)
    Writing library                          : XviD 64
    
    Audio
    ID                                       : 1
    Format                                   : AC-3
    Format/Info                              : Audio Coding 3
    Mode extension                           : CM (complete main)
    Format settings, Endianness              : Big
    Codec ID                                 : 2000
    Duration                                 : 1h 45mn
    Bit rate mode                            : Constant
    Bit rate                                 : 384 Kbps
    Channel(s)                               : 6 channels
    Channel positions                        : Front: L C R, Side: L R, LFE
    Sampling rate                            : 48.0 KHz
    Bit depth                                : 16 bits
    Compression mode                         : Lossy
    Stream size                              : 290 MiB (19%)
    Alignment                                : Split accross interleaves
    Interleave, duration                     : 42 ms (1.00 video frame)
    Interleave, preload duration             : 500 ms
    
    
    http://www.imdb.com/title/tt2005374/
    
    Plot Summary
    "The Frozen Ground" is inspired by the incredible true story that follows Alaskan State Trooper Jack Halcombe (Nicolas Cage) as he sets out to end the murderous rampage of Robert Hansen (John Cusack), a serial killer who has gone unnoticed for 13 years. As the bodies of street girls start to pile up in Anchorage, fear strikes a chord with the public. Risking his life, Halcombe goes on a personal manhunt to find the killer before the next body surfaces. When a seventeen year old escapee (Vanessa Hudgens) reveals key information about the case, Halcombe is finally on the trail of the killer. But will he catch him in time to save the next victim?
    
    Source Used         1080p              - Thanks
    Screens






    Sample
    Code:
    http://www.sendspace.com/file/j92o6r
    DownLoad

    NetLoad
    Code:
    http://netload.in/dateiF9yPDY54fS/Frozen.avi.htm
    
    http://netload.in/datei1uD25Wa93Y/Frozen.srt.htm
    ExtaBit
    Code:
    http://extabit.com/file/279sbtf5se30p/Frozen.avi
    
    http://extabit.com/file/279sbtf5secft/Frozen.srt
    Uploaded.to
    Code:
    http://uploaded.net/file/zw3pstfh/Frozen.avi
    
    http://uploaded.net/file/dicqvos2/Frozen.srt
    RapidGator
    Code:
    http://rapidgator.net/file/bd11a6c1547acd7f6261c86304e0783f/Frozen.avi.html
    
    http://rapidgator.net/file/74dcd7c39d60d98b3e6808e8d80de91e/Frozen.srt.html

  2. # ADS
    Circuit advertisement
    Join Date
    Always
    Posts
    Many
                        
     

Similar Threads

  1. Epic (2013) HDRip XviD-UNiQUE
    By BollyCorner in forum Cam
    Replies: 0
    Last Post: 08-06-2013, 02:06 PM
  2. Epic (2013) HDRiP XViD-UNiQUE
    By QualityUploader in forum Cam
    Replies: 0
    Last Post: 08-06-2013, 02:02 PM

Bookmarks

Posting Permissions

  • You may not post new threads
  • You may not post replies
  • You may not post attachments
  • You may not edit your posts
  •  
◮ Top

SEO by vBSEO ©2011, Crawlability, Inc.