Results 1 to 1 of 1

Thread: We're The Millers (2013) WEBRip XviD-UNiQUE

  1. #1
    Senior Member
    Join Date
    Jul 2013
    Posts
    270

    We're The Millers (2013) WEBRip XviD-UNiQUE

    We're The Millers (2013) WEBRip XviD-UNiQUE



    Code:
    Format                                   : AVI
    Format/Info                              : Audio Video Interleave
    File size                                : 1.33 GiB
    Duration                                 : 1h 44mn
    Overall bit rate                         : 1 813 Kbps
    Writing application                      : VirtualDubMod 1.5.10.2 (build 2540/release)
    Writing library                          : VirtualDubMod build 2540/release
    
    Video
    ID                                       : 0
    Format                                   : MPEG-4 Visual
    Format profile                           : Advanced Simple@L5
    Format settings, BVOP                    : 2
    Format settings, QPel                    : No
    Format settings, GMC                     : No warppoints
    Format settings, Matrix                  : Default (H.263)
    Muxing mode                              : Packed bitstream
    Codec ID                                 : XVID
    Codec ID/Hint                            : XviD
    Duration                                 : 1h 44mn
    Bit rate                                 : 1 612 Kbps
    Width                                    : 720 pixels
    Height                                   : 288 pixels
    Display aspect ratio                     : 2.500
    Frame rate                               : 25.000 fps
    Color space                              : YUV
    Chroma subsampling                       : 4:2:0
    Bit depth                                : 8 bits
    Scan type                                : Progressive
    Compression mode                         : Lossy
    Bits/(Pixel*Frame)                       : 0.311
    Stream size                              : 1.18 GiB (89%)
    Writing library                          : XviD 64
    
    Audio
    ID                                       : 1
    Format                                   : AC-3
    Format/Info                              : Audio Coding 3
    Mode extension                           : CM (complete main)
    Format settings, Endianness              : Big
    Codec ID                                 : 2000
    Duration                                 : 1h 44mn
    Bit rate mode                            : Constant
    Bit rate                                 : 192 Kbps
    Channel(s)                               : 2 channels
    Channel positions                        : Front: L R
    Sampling rate                            : 44.1 KHz
    Bit depth                                : 16 bits
    Compression mode                         : Lossy
    Stream size                              : 144 MiB (11%)
    Alignment                                : Split accross interleaves
    Interleave, duration                     : 40 ms (1.00 video frame)
    Interleave, preload duration             : 500 ms
    
    
    http://www.imdb.com/title/tt1723121
    
    Storyline
    After being robbed of a week's take, small-time pot dealer David is forced by his boss to go to Mexico to pick up a load of marijuana. In order to improve his odds of making it past the border, David asks the broke stripper Rose and two local teenagers to join him and pretend they're on a family holiday.
    
    
    Source Used         SmY              - Thanks








    Code:
    http://rapidgator.net/file/dc4263179b42e8c34d5bab57c341bdf5/We_re_The_Millers_2013_WEBRiP_XViD_UNiQUE.avi.part1.rar.html
    http://rapidgator.net/file/ae866c0f6c06eb8021b1d005ca77e6bb/We_re_The_Millers_2013_WEBRiP_XViD_UNiQUE.avi.part2.rar.html
    Code:
    http://fileom.com/hw4s6ztnd0xz/We_re_The_Millers_2013_WEBRiP_XViD_UNiQUE.avi.part1.rar.html
    http://fileom.com/gg2tw9x9ddeq/We_re_The_Millers_2013_WEBRiP_XViD_UNiQUE.avi.part2.rar.html

  2. # ADS
    Circuit advertisement
    Join Date
    Always
    Posts
    Many
                        
     

Similar Threads

  1. We're The Millers (2013) WEBRip XviD-UNiQUE
    By BollyCorner in forum Cam
    Replies: 0
    Last Post: 08-22-2013, 09:58 AM
  2. We're The Millers (2013) WEBRiP XViD-UNiQUE
    By QualityUploader in forum Cam
    Replies: 0
    Last Post: 08-22-2013, 05:55 AM
  3. Replies: 0
    Last Post: 08-21-2013, 09:57 PM
  4. Barrio Brawler 2013 CROPPED WEBRiP XViD-UNiQUE
    By Delivery in forum DVDrip and BRrip
    Replies: 0
    Last Post: 07-05-2013, 08:18 AM
  5. The Hangover Part III 2013 WEBRip R6 XViD UNiQUE
    By blueboy01 in forum DVDrip and BRrip
    Replies: 0
    Last Post: 06-10-2013, 01:32 PM

Bookmarks

Posting Permissions

  • You may not post new threads
  • You may not post replies
  • You may not post attachments
  • You may not edit your posts
  •  
◮ Top

SEO by vBSEO ©2011, Crawlability, Inc.