Results 1 to 1 of 1
Like Tree1Likes
  • 1 Post By QualityUploader

Thread: The Conjuring (2013) WEBRip XViD AC3-ReLeNTLesS

  1. #1
    Senior Member
    Join Date
    Jun 2013
    Posts
    150

    The Conjuring (2013) WEBRip XViD AC3-ReLeNTLesS




    CHECK MOVIE QUALITY HERE

    DOWNLOAD SAMPLE | 4.58 MB SIZE
    SCREENS




    The Conjuring (2013) WEBRip XViD AC3 ReLeNTLesS

    RELEASE INFO
    Code:
    ViDE0 iNF0
    ID                                       : 0
    Format                                   : MPEG-4 Visual
    Format profile                           : Advanced Simple@L5
    Format settings, BVOP                    : 2
    Format settings, QPel                    : No
    Format settings, GMC                     : No warppoints
    Format settings, Matrix                  : Default (H.263)
    Codec ID                                 : XVID
    Codec ID/Hint                            : XviD
    Duration                                 : 1h 47mn
    Bit rate                                 : 963 Kbps
    Width                                    : 688 pixels
    Height                                   : 272 pixels
    Display aspect ratio                     : 2.529
    Frame rate                               : 25.000 fps
    Color space                              : YUV
    Chroma subsampling                       : 4:2:0
    Bit depth                                : 8 bits
    Scan type                                : Progressive
    Compression mode                         : Lossy
    Bits/(Pixel*Frame)                       : 0.206
    Stream size                              : 740 MiB (88%)
    Writing library                          : XviD 1.2.1 (UTC 2008-12-04)
    AUDi0 iNF0
    ID                                       : 1
    Format                                   : AC-3
    Format/Info                              : Audio Coding 3
    Mode extension                           : CM (complete main)
    Format settings, Endianness              : Big
    Codec ID                                 : 2000
    Duration                                 : 1h 47mn
    Bit rate mode                            : Constant
    Bit rate                                 : 128 Kbps
    Channel(s)                               : 2 channels
    Channel positions                        : Front: L R
    Sampling rate                            : 44.1 KHz
    Bit depth                                : 16 bits
    Compression mode                         : Lossy
    Stream size                              : 98.3 MiB (12%)
    Alignment                                : Aligned on interleaves
    Interleave, duration                     : 70 ms (1.74 video frames)
    Interleave, preload duration             : 208 ms
    Title                                    : The.Conjuring.2013.ReLeNTLesS.audio
    Source                                 :  SmY cheers 
    Sample Included                :  Yes
    DOWNLOAD MOVIE | 843.64 MB SIZE

    SINGLE LINK | NO EXTRACTION

    RAPIDGATOR
    Code:
    http://rapidgator.net/file/91db55d8a6527c6ea57835a71ee45438/TC.2013.WEBRip.XViD.AC3.ReLeNTLesS.avi.html
    SECUREUPLOAD
    Code:
    http://www.secureupload.eu/7pp33ap38p5b/TC.2013.WEBRip.XViD.AC3.ReLeNTLesS.avi
    EXTABIT
    Code:
    http://extabit.com/file/279siapos61qi/TC.2013.WEBRip.XViD.AC3.ReLeNTLesS.avi
    NETLOAD
    Code:
    http://www.netload.in/dateiwvlmEEIOcC/TC.2013.WEBRip.XViD.AC3.ReLeNTLesS.avi.htm
    IMDB INFO
    Code:
    Genre		: Horror, Thriller
    Actors		: Vera Farmiga, Patrick Wilson, Lili Taylor
    Plot		: Paranormal investigators Ed and Lorraine Warren work to help a family terrorized by a dark presence in their farmhouse.
    IMDB link	: http://www.imdb.com/title/tt1457767/
    "Thanks" for reading and downloading from my thread

  2. # ADS
    Circuit advertisement
    Join Date
    Always
    Posts
    Many
                        
     

Similar Threads

  1. The Conjuring (2013) WEBRip XviD-THC
    By QualityUploader in forum Cam
    Replies: 0
    Last Post: 08-04-2013, 04:53 AM
  2. The Conjuring (2013) WEBRip XviD-AQOS
    By BollyCorner in forum Cam
    Replies: 0
    Last Post: 08-03-2013, 08:07 PM
  3. Replies: 0
    Last Post: 07-30-2013, 10:17 PM
  4. The Host 2013 WEBrip Xvid Ac3 MiLLENiUM
    By ghost in forum DVDrip and BRrip
    Replies: 0
    Last Post: 07-27-2013, 04:37 AM

Bookmarks

Posting Permissions

  • You may not post new threads
  • You may not post replies
  • You may not post attachments
  • You may not edit your posts
  •  
◮ Top

SEO by vBSEO ©2011, Crawlability, Inc.