Results 1 to 1 of 1
Like Tree1Likes
  • 1 Post By QualityUploader

Thread: The Smurfs 2 (2013) CAM READNFO XviD-VAiN

  1. #1
    Senior Member
    Join Date
    Jun 2013
    Posts
    151

    The Smurfs 2 (2013) CAM READNFO XviD-VAiN




    CHECK MOVIE QUALITY HERE

    DOWNLOAD SAMPLE | 12.93 MB SIZE
    SCREENS




    The Smurfs 2 (2013) CAM READNFO XviD-VAiN

    RELEASE INFO
    Code:
    Format                           : AVI
    Format/Info                      : Audio Video Interleave
    File size                        : 1.37 GiB
    Duration                         : 1h 37mn
    Overall bit rate                 : 2 022 Kbps
    Movie name                       : Smurfiki.2.2013.D.TS.1400MB.INTERCINEMA
    Director                         : INTERCINEMA
    Writing application              : VirtualDubMod 1.5.10.2 (build 2540/release)
    Writing library                  : VirtualDubMod build 2540/release
    Copyright                        : http://intercinema.net
    
    Video
    ID                               : 0
    Format                           : MPEG-4 Visual
    Format profile                   : Advanced Simple@L5
    Format settings, BVOP            : 2
    Format settings, QPel            : No
    Format settings, GMC             : No warppoints
    Format settings, Matrix          : Default (MPEG)
    Muxing mode                      : Packed bitstream
    Codec ID                         : XVID
    Codec ID/Hint                    : XviD
    Duration                         : 1h 37mn
    Bit rate                         : 1 882 Kbps
    Width                            : 640 pixels
    Height                           : 304 pixels
    Display aspect ratio             : 2.2:1
    Frame rate                       : 29.970 fps
    Color space                      : YUV
    Chroma subsampling               : 4:2:0
    Bit depth                        : 8 bits
    Scan type                        : Progressive
    Compression mode                 : Lossy
    Bits/(Pixel*Frame)               : 0.323
    Stream size                      : 1.28 GiB (93%)
    Writing library                  : XviD 64
    
    Audio
    ID                               : 1
    Format                           : MPEG Audio
    Format version                   : Version 1
    Format profile                   : Layer 3
    Codec ID                         : 55
    Codec ID/Hint                    : MP3
    Duration                         : 1h 37mn
    Bit rate mode                    : Constant
    Bit rate                         : 128 Kbps
    Channel(s)                       : 2 channels
    Sampling rate                    : 44.1 KHz
    Compression mode                 : Lossy
    Stream size                      : 88.9 MiB (6%)
    Alignment                        : Split accross interleaves
    Interleave, duration             : 33 ms (1.00 video frame)
    
    SOURCE......:  ViDEO:Smurfiki.2.2013.D.TS.1400MB.INTERCINEMA [thanx]
                  AUDiO: The DOGZ BOLLAX :wink: thanks brochacho
    DOWNLOAD MOVIE | 1.37 GB SIZE

    SINGLE LINK | NO EXTRACTION

    RAPIDGATOR
    Code:
    http://rapidgator.net/file/9295c123b5a36fd67cd6a7c8372a3962/TS2.2013.CAM.XViD-VAiN.avi.html
    SECUREUPLOAD
    Code:
    http://www.secureupload.eu/hujeecgbfc8a/TS2.2013.CAM.XViD-VAiN.avi
    EXTABIT
    Code:
    http://extabit.com/file/279siapkhcvei/TS2.2013.CAM.XViD-VAiN.avi
    UPLOADED
    Code:
    http://uploaded.net/file/dhtvmm1p/TS2.2013.CAM.XViD-VAiN.avi
    NETLOAD
    Code:
    http://www.netload.in/dateiV7hjaMAYh3/TS2.2013.CAM.XViD-VAiN.avi.htm
    IMDB INFO
    Code:
    Genre		: Animation, Comedy, Family
    Actors		: Neil Patrick Harris, Jayma Mays, Katy Perry
    Plot		: The Smurfs team up with their human friends to rescue Smurfette, who has been kidnapped by Gargamel since she knows a secret spell that can turn the evil sorcerer's newest creation - creatures called the Naughties - into real Smurfs.
    IMDB link	: http://www.imdb.com/title/tt2017020/
    "Thanks" for reading and downloading from my thread

  2. # ADS
    Circuit advertisement
    Join Date
    Always
    Posts
    Many
                        
     

Similar Threads

  1. The Smurfs 2 (2013) CAM XviD-UNiQUE
    By BollyCorner in forum Cam
    Replies: 0
    Last Post: 08-04-2013, 09:06 PM
  2. The Smurfs 2 2013 CAM XViD-UNiQUE
    By QualityUploader in forum Cam
    Replies: 0
    Last Post: 08-04-2013, 08:26 PM
  3. Replies: 0
    Last Post: 08-04-2013, 06:24 PM
  4. The Smurfs 2 (2013) CAM READNFO XviD-VAiN
    By BollyCorner in forum Cam
    Replies: 0
    Last Post: 08-04-2013, 05:39 PM
  5. Replies: 1
    Last Post: 05-01-2013, 11:33 PM

Bookmarks

Posting Permissions

  • You may not post new threads
  • You may not post replies
  • You may not post attachments
  • You may not edit your posts
  •  
◮ Top

SEO by vBSEO ©2011, Crawlability, Inc.