Results 1 to 1 of 1

Thread: The Hangover Part III 2013 720p HDTS OWN SOURCE XviD-YanKeeS

  1. #1
    Member
    Join Date
    Jul 2013
    Posts
    80

    The Hangover Part III 2013 720p HDTS OWN SOURCE XviD-YanKeeS

    The Hangover Part III 2013 720p HDTS OWN SOURCE XviD-YanKeeS



    Code:
    General
    Complete name : The.Hangover.Part.III.2013.720p.TS.OWN.SOURCE.XviD-YanKeeS.avi
    Format : AVI
    File size : 2.02 GiB
    Duration : 1h 35mn
    Overall bit rate : 3 036 Kbps
    Movie name : YanKeeS
    
    Video
    ID : 0
    Format : MPEG-4 Visual
    Format profile : Advanced Simple@L5
    Format settings, BVOP : No
    Format settings, QPel : No
    Format settings, GMC : No warppoints
    Format settings, Matrix : Default (H.263)
    Codec ID : XVID
    Codec ID/Hint : XviD
    Duration : 1h 35mn
    Bit rate : 2 899 Kbps
    Width : 1 280 pixels
    Height : 536 pixels
    Display aspect ratio : 2.40:1
    Frame rate : 29.970 fps
    Color space : YUV
    Chroma subsampling : 4:2:0
    Bit depth : 8 bits
    Scan type : Progressive
    Compression mode : Lossy
    Bits/(Pixel*Frame) : 0.141
    Stream size : 1.93 GiB (95%)
    Writing library : XviD 1.2.1 (UTC 2008-12-04)
    
    Audio
    ID : 1
    Format : MPEG Audio
    Format version : Version 1
    Format profile : Layer 3
    Mode : Joint stereo
    Mode extension : MS Stereo
    Codec ID : 55
    Codec ID/Hint : MP3
    Duration : 1h 35mn
    Bit rate mode : Constant
    Bit rate : 128 Kbps
    Channel(s) : 2 channels
    Sampling rate : 48.0 KHz
    Compression mode : Lossy
    Stream size : 87.0 MiB (4%)
    Alignment : Aligned on interleaves
    Interleave, duration : 24 ms (0.72 video frame)
    Interleave, preload duration : 192 ms
    Title : ENG









    Code:
    http://keep2share.cc/file/51f4e8e0a7fb4/The.Hangover.Part.III.2013.720p.HDTS.OWN.SOURCE.XviD-YanKeeS.avi.part1.rar
    http://keep2share.cc/file/51f4e7b23a3d6/The.Hangover.Part.III.2013.720p.HDTS.OWN.SOURCE.XviD-YanKeeS.avi.part2.rar
    http://keep2share.cc/file/51f4e6d231ede/The.Hangover.Part.III.2013.720p.HDTS.OWN.SOURCE.XviD-YanKeeS.avi.part3.rar
    Code:
    http://rapidgator.net/file/03fe58fe566c798187b69edc250f442c/The.Hangover.Part.III.2013.720p.HDTS.OWN.SOURCE.XviD-YanKeeS.avi.part2.rar.html
    http://rapidgator.net/file/d5ae45be8dc000a71f6cf1e76caac416/The.Hangover.Part.III.2013.720p.HDTS.OWN.SOURCE.XviD-YanKeeS.avi.part1.rar.html
    http://rapidgator.net/file/83c5b5bae5cd08cd1ff1315f81d60b52/The.Hangover.Part.III.2013.720p.HDTS.OWN.SOURCE.XviD-YanKeeS.avi.part3.rar.html

  2. # ADS
    Circuit advertisement
    Join Date
    Always
    Posts
    Many
                        
     

Similar Threads

  1. The Hangover Part III 2013 WEBRip R6 XViD UNiQUE
    By blueboy01 in forum DVDrip and BRrip
    Replies: 0
    Last Post: 06-10-2013, 01:32 PM
  2. Replies: 0
    Last Post: 06-08-2013, 11:53 AM
  3. The Hangover Part III (2013) NEW TS HasEnd XviD-SUMO
    By phamthanh16091990 in forum Cam
    Replies: 0
    Last Post: 06-04-2013, 06:36 PM
  4. The Hangover Part III CAM XVID-Snake
    By Delivery in forum Cam
    Replies: 1
    Last Post: 05-28-2013, 01:19 AM

Bookmarks

Posting Permissions

  • You may not post new threads
  • You may not post replies
  • You may not post attachments
  • You may not edit your posts
  •  
◮ Top

SEO by vBSEO ©2011, Crawlability, Inc.