CHECK MOVIE QUALITY HERE

DOWNLOAD SAMPLE | 8.01 MB SIZE
SCREENS




The Smurfs 2 2013 CAM XViD-UNiQUE

RELEASE INFO
Code:
Format                                   : AVI
Format/Info                              : Audio Video Interleave
File size                                : 1.37 GiB
Duration                                 : 1h 37mn
Overall bit rate                         : 2 019 Kbps
Writing application                      : VirtualDubMod 1.5.10.2 (build 2540/release)
Writing library                          : VirtualDubMod build 2540/release

Video
ID                                       : 0
Format                                   : MPEG-4 Visual
Format profile                           : Advanced Simple@L5
Format settings, BVOP                    : 2
Format settings, QPel                    : No
Format settings, GMC                     : No warppoints
Format settings, Matrix                  : Default (H.263)
Muxing mode                              : Packed bitstream
Codec ID                                 : XVID
Codec ID/Hint                            : XviD
Duration                                 : 1h 37mn
Bit rate                                 : 1 879 Kbps
Width                                    : 628 pixels
Height                                   : 312 pixels
Display aspect ratio                     : 2.013
Frame rate                               : 29.970 fps
Color space                              : YUV
Chroma subsampling                       : 4:2:0
Bit depth                                : 8 bits
Scan type                                : Progressive
Compression mode                         : Lossy
Bits/(Pixel*Frame)                       : 0.320
Stream size                              : 1.27 GiB (93%)
Writing library                          : XviD 64

Audio
ID                                       : 1
Format                                   : MPEG Audio
Format version                           : Version 1
Format profile                           : Layer 3
Codec ID                                 : 55
Codec ID/Hint                            : MP3
Duration                                 : 1h 37mn
Bit rate mode                            : Constant
Bit rate                                 : 128 Kbps
Channel(s)                               : 2 channels
Sampling rate                            : 44.1 KHz
Compression mode                         : Lossy
Stream size                              : 88.9 MiB (6%)
Alignment                                : Split accross interleaves
Interleave, duration                     : 33 ms (1.00 video frame)
Interleave, preload duration             : 500 ms
DOWNLOAD MOVIE | 1.37 GB SIZE

SINGLE LINK | NO EXTRACTION

RAPIDGATOR
Code:
http://rapidgator.net/file/aea5cd816ad20a7f352c87462da1144b/Smurfs.avi.html
SECUREUPLOAD
Code:
http://www.secureupload.eu/qldeerryc1ce/Smurfs.avi
EXTABIT
Code:
http://extabit.com/file/279siapk6w70f/Smurfs.avi
UPLOADED
Code:
http://uploaded.net/file/ju84arwe/Smurfs.avi
NETLOAD
Code:
http://www.netload.in/dateizy7j4T1IWU/Smurfs.avi.htm

IMDB INFO
Code:
Genre		: Animation, Comedy, Family
Actors		: Neil Patrick Harris, Jayma Mays, Katy Perry
Plot		: The Smurfs team up with their human friends to rescue Smurfette, who has been kidnapped by Gargamel since she knows a secret spell that can turn the evil sorcerer's newest creation - creatures called the Naughties - into real Smurfs.
IMDB link	: http://www.imdb.com/title/tt2017020/
"Thanks" for reading and downloading from my thread