CHECK MOVIE QUALITY HERE

DOWNLOAD SAMPLE | 16.68 MB SIZE
SCREENS




The Conjuring (2013) WEBRip XviD-THC

RELEASE INFO
Code:
Format                           : AVI
Format/Info                      : Audio Video Interleave
File size                        : 1.35 GiB
Duration                         : 1h 47mn
Overall bit rate                 : 1 799 Kbps
Writing library                  : VirtualDub build 35390/release

Video
ID                               : 0
Format                           : MPEG-4 Visual
Format profile                   : Advanced Simple@L5
Format settings, BVOP            : Yes
Format settings, QPel            : No
Format settings, GMC             : No warppoints
Format settings, Matrix          : Default (H.263)
Muxing mode                      : Packed bitstream
Codec ID                         : XVID
Codec ID/Hint                    : XviD
Duration                         : 1h 47mn
Bit rate                         : 1 597 Kbps
Width                            : 720 pixels
Height                           : 292 pixels
Display aspect ratio             : 2.466
Frame rate                       : 24.976 fps
Color space                      : YUV
Chroma subsampling               : 4:2:0
Bit depth                        : 8 bits
Scan type                        : Progressive
Bits/(Pixel*Frame)               : 0.304
Stream size                      : 1.20 GiB (89%)
Writing library                  : XviD 1.2.1 (UTC 2008-12-04)

Audio
ID                               : 1
Format                           : MPEG Audio
Format version                   : Version 1
Format profile                   : Layer 3
Mode                             : Joint stereo
Codec ID                         : 55
Codec ID/Hint                    : MP3
Duration                         : 1h 47mn
Bit rate mode                    : Constant
Bit rate                         : 192 Kbps
Channel(s)                       : 2 channels
Sampling rate                    : 44.1 KHz
Stream size                      : 147 MiB (11%)
Alignment                        : Split accross interleaves
Interleave, duration             : 40 ms (1.00 video frame)
Interleave, preload duration     : 500 ms
DOWNLOAD MOVIE | 1.35 GB SIZE

SINGLE LINK | NO EXTRACTION

RAPIDGATOR
Code:
http://rapidgator.net/file/1f13b42d2fa20653f53703105c9a6708/TC.WEBRip_XviD-THC.avi.html
SECUREUPLOAD
Code:
http://www.secureupload.eu/hfw2aj8ym1yu/TC.WEBRip_XviD-THC.avi
EXTABIT
Code:
http://extabit.com/file/279si9tdcd6e7/TC.WEBRip XviD-THC.avi
UPLOADED
Code:
http://uploaded.net/file/mlz4k01h/TC.WEBRip%20XviD-THC.avi
NETLOAD
Code:
http://www.netload.in/dateikBNVCtJP28/TC.WEBRip XviD-THC.avi.htm
IMDB INFO
Code:
Genre		: Horror, Thriller
Actors		: Vera Farmiga, Patrick Wilson, Lili Taylor
Plot		: Paranormal investigators Ed and Lorraine Warren work to help a family terrorized by a dark presence in their farmhouse.
IMDB link	: http://www.imdb.com/title/tt1457767/
"Thanks" for reading and downloading from my thread