Results 1 to 1 of 1

Thread: Pain & Gain (2013) TS XViD-STINKBOMB

  1. #1
    Senior Member
    Join Date
    Jun 2013
    Posts
    458

    Pain & Gain (2013) TS XViD-STINKBOMB




    CHECK MOVIE QUALITY HERE

    DOWNLOAD SAMPLE | 37.8 MB SIZE
    SCREENS




    Pain & Gain (2013) TS XViD-STINKBOMB

    RELEASE INFO
    Code:
    General
    Complete name                             
    Pain & Gain 2013 TS XViD-STINKBOMB.avi
    Format: AVI
    Format/Info: Audio Video Interleave
    File size: 951 MiB
    Duration: 2h 1mn
    Overall bit rate: 1 093 Kbps
    
    Video
    
    ID: 0
    Format: MPEG-4 Visual
    Format profile: Advanced Simple@L5
    Format settings, BVOP: 2
    Format settings, QPel: No
    Format settings, GMC: No warppoints
    Format settings, Matrix: Default (H.263)
    Codec ID: XVID
    Codec ID/Hint: XviD
    Duration: 2h 1mn
    Bit rate: 700 Kbps
    Width: 720 pixels
    Height: 304 pixels
    Display aspect ratio: 2.35:1
    Frame rate: 24.000 fps
    Color space: YUV
    Chroma subsampling: 4:2:0
    Bit depth: 8 bits
    Scan type: Progressive
    Compression mode: Lossy
    Bits/(Pixel*Frame): 0.133
    Stream size: 609 MiB (64%)
    Writing library: XviD 64
    
    Audio
    
    ID: 1
    Format: AC-3
    Format/Info:Audio Coding 3
    Mode extension:CM (complete main)
    Format settings, Endianness: Big
    Codec ID: 2000
    Duration: 2h 1mn
    Source duration: 2h 1mn
    Bit rate mode: Constant
    Bit rate: 384 Kbps
    Channel(s): 2 channels
    Channel positions: Front: L R
    Sampling rate: 48.0 KHz
    Bit depth: 16 bits
    Compression mode: Lossy
    Stream size: 333 MiB (35%)
    Alignment: Aligned on interleaves
    Interleave, duration: 32 ms (0.77 video frame)
    DOWNLOAD MOVIE | 951.2 MB SIZE

    SINGLE LINK | NO EXTRACTION

    RAPIDGATOR
    Code:
    http://rapidgator.net/file/8d165cd9386b64c6b84b0ff10d68102b/PG.2013.TS.XViD-STINKBOMB.avi.html
    SECUREUPLOAD
    Code:
    http://www.secureupload.eu/qri8tnichafq/PG.2013.TS.XViD-STINKBOMB.avi
    EXTABIT
    Code:
    http://extabit.com/file/279si9uhkrtjb/PG.2013.TS.XViD-STINKBOMB.avi
    UPLOADED
    Code:
    http://uploaded.net/file/d5ln25o6/PG.2013.TS.XViD-STINKBOMB.avi
    NETLOAD
    Code:
    http://www.netload.in/dateiual7r6jO4D/PG.2013.TS.XViD-STINKBOMB.avi.htm

    IMDB INFO
    Code:
    Genre		: Comedy | Crime | Drama 
    Actors		: Mark Wahlberg, Dwayne Johnson, Anthony Mackie
    Plot		: A trio of bodybuilders in Florida get caught up in an extortion ring and a kidnapping scheme that goes terribly wrong.
    IMDB link	: http://www.imdb.com/title/tt1980209/
    "Thanks" for reading and downloading from my thread

  2. # ADS
    Circuit advertisement
    Join Date
    Always
    Posts
    Many
                        
     

Similar Threads

  1. The Wolverine 2013 TS XviD-STINKBOMB
    By pisher in forum Cam
    Replies: 0
    Last Post: 08-02-2013, 11:21 PM
  2. Pain & Gain (2013) TS READNFO XviD-JUSTiCE
    By phamthanh16091990 in forum Cam
    Replies: 0
    Last Post: 06-04-2013, 07:16 PM
  3. Pain & Gain 2013 TS XviD-MiLLENiUM
    By Delivery in forum Cam
    Replies: 0
    Last Post: 06-03-2013, 12:47 AM

Bookmarks

Posting Permissions

  • You may not post new threads
  • You may not post replies
  • You may not post attachments
  • You may not edit your posts
  •  
◮ Top

SEO by vBSEO ©2011, Crawlability, Inc.